apple video media handler codec

3.5 of 5

video - How do i identify/play this file? (It's a WMV inside a MOV ...
May 18, 2011 . I use avicodec to check which failed. . ftypqt qt moov lmvhd Apple Sound Media Handler :hdlr mhlrvideappl Apple Video Media Handler vmhd .
http://superuser.com/questions/285425/how-do-i-identify-play-this-file-its-a-wmv-inside-a-mov

Special Offer
Earn Up to 3 FREE Nights
Minneapolis Marriott Southwest
Minneapolis Marriott Southwest
Minneapolis Marriott Southwest
Minneapolis Marriott Southwest
Minneapolis Marriott Southwest
Minneapolis Marriott Southwest
4.0 of 5 stars 69 Reviews
Show the lowest price for this hotel*
Show Prices
*from our partners
Write a Review

69 reviews from our community

    Trip type
Traveler rating
    30
    25
    6
    7
    1
Date Rating
Duluth, Minnesota
Top Contributor
69 reviews 69 reviews
Reviews in 32 cities Reviews in 32 cities
33 helpful votes 33 helpful votes
5 of 5 stars

FFmpeg-users - Need help with converting a h.264 3gp file to h.263 ...
handler_name : Apple Video Media Handler* * Stream #0:2(und): Data: none (rtp / 0x20707472)* * Metadata:* * creation_time : 1942-05-30 .
http://ffmpeg-users.933282.n4.nabble.com/Need-help-with-converting-a-h-264-3gp-file-to-h-263-3gp-td4651931.html

QT Codec Information - AwkwardTV
http://www.apple.com/quicktime/ . video MPEG-2 Media Handler" .
http://wiki.awkwardtv.org/wiki/QT_Codec_Information

Sony Product profile issues - BDP 570, SMP-N100
handler_name : Apple Video Media Handler . to open bitstream filter h264_mp4toannexb for stream 0 with codec copy: Invalid argument .
http://forum.conceiva.com/showthread.php/3646-Sony-Product-profile-issues-BDP-570-SMP-N100

Other Video Players | HD-Trailers.net Blog
You don't have to install any codecs and most definitely don't have to install . Video: MPEG4 Video (H264) 1920×1036 [Apple Video Media Handler (eng)] .
http://blog.hd-trailers.net/miscellaneous/watch-hd-trailers-outside-quicktime/

[FFmpeg-user] Need help with converting a h.264 3gp file to h.263 3gp
Jul 20, 2012. 1942-05-31 01:31:41 handler_name : Apple Video Media Handler . The specified picture size of 240x300 is not valid for the H.263 codec.
https://lists.ffmpeg.org/pipermail/ffmpeg-user/2012-July/008216.html

MP4 Audio not playing voices
I completely removed the sound card and all codec packages from . V: Apple Video Media Handler [eng](mpeg4 simple profile, yuv420p, .
http://www.cccp-project.net/forums/index.php?topic=6483.0

Senior Reviewer
9 reviews 9 reviews
Reviews in 8 cities Reviews in 8 cities
21 helpful votes 21 helpful votes
4 of 5 stars

Re: USB headphones not playing Voice track - Codec Guide ...
The AAC is the audio codec I'm having trouble playing back on headset. . V: Apple Video Media Handler [eng](h264 high L3.1, yuv420p, .
http://codecs.forumotion.net/t883-usb-headphones-not-playing-voice-track

.NET Media Handler Pro - CNET Download.com
Jul 19, 2012 . Media Handler Pro is a . . duration, sampling rate, width, height, video codec, audio codec, video size, video filename and other information.
http://download.cnet.com/NET-Media-Handler-Pro/3000-10250_4-10875307.html

#2185 (No audio in some .mov files) – Media Player Classic - Home ...
Media Player Classic - Home Cinema. Search: . Version: 1.6.1.4235. Keywords: mov audio codecs, Cc: . MPC MP4/MOV Source::Apple Sound Media Handler .
http://sourceforge.net/apps/trac/mpc-hc/ticket/2185

concating/merging multiple MP4 source files to output • FFmpeg ...
Jul 11, 2012 . [mov,mp4,m4a,3gp,3g2,mj2 @ 0x10180f200] Could not find codec parameters ( Audio: aac . handler_name : Apple Video Media Handler .
http://ffmpeg.gusari.org/viewtopic.php?f=11&t=625

MOV to MP4
Hi all, this is my first post here, i recently started to work with video . Free Codecs . Video: MPEG4 Video (H264) 640x480 30.00fps [Apple Video Media . Audio: AAC 44100Hz stereo 256kbps [Apple Sound Media Handler .
http://forum.videohelp.com/threads/314994-MOV-to-MP4

September 4, 2012

[MPlayer-users] Unable to play Apple ProRes 422 sample
Sep 11, 2010 . MOV: Handler header: mhlr/vide (appl) Apple Video Mediensteuerung MOV: Media info! MOV: Video header! MOV: Handler header: dhlr/alis .
http://lists.mplayerhq.hu/pipermail/mplayer-users/2010-September/081098.html

php - ffmpeg not giving correct duration of a mp4 - Stack Overflow
I am working with ffmpeg to convert videos into flv files via php. . 0 Seems stream 1 codec frame rate differs from container frame rate: 5994.00 . 2011-08- 17 21:14:16 handler_name : Apple Video Media Handler At least one .
http://stackoverflow.com/questions/10836859/ffmpeg-not-giving-correct-duration-of-a-mp4

Top Contributor
246 reviews 246 reviews
Reviews in 128 cities Reviews in 128 cities
127 helpful votes 127 helpful votes
4 of 5 stars

[MPlayer-users] Not able to play video file in mplayer (xine plays ...
Jan 15, 2006 . MOV: Handler header: mhlr/vide (appl) Apple Video Media Handler . Video codec seleccionado: [ffsvq3] vfm: ffmpeg (FFmpeg Sorenson .
http://lists.mplayerhq.hu/pipermail/mplayer-users/2006-January/057939.html

[MPlayer-users] MPlayer and Apple's QuickTime audio
Jul 7, 2006 . Hello list, I'm having trouble playing Apple's QuickTime <.mov> files on Ubuntu 6.06 LTS First all, these are the codecs I've got installed: w32codecs . MOV: Handler header: mhlr/vide (appl) Apple Video Media Handler MOV: .
http://lists.mplayerhq.hu/pipermail/mplayer-users/2006-July/061370.html

[FFmpeg-user] Adapting videos for -filter_complex concat
Aug 24, 2012 . We'd like to keep as much quality from the original video as possible. . -codec:v h264 -b:v 2004545 -r 25/1 -frames:v 200 -codec:a aac \ -ar 44100 -ac 2 -b:a . Apple Video Media Handler Stream #1:1(eng): Audio: aac (mp4a .
http://ffmpeg.org/pipermail/ffmpeg-user/2012-August/009122.html

Sony BDP BluRay Player Profile
handler_name : Apple Video Media Handler . a format, audio/video codecs within that format and any codec limits in this device profile. Best fit .
http://forum.conceiva.com/showthread.php/3213-Sony-BDP-BluRay-Player-Profile

Playing MP4 in windows media player 11 - Microsoft Answers
I am not able to play MP4 video files in wmp 11. It says these files are . Apple Quicktime http://www.apple.com/quicktime/download/ . Media Player Codec Pack .
http://answers.microsoft.com/en-us/windows/forum/windows_vista-sound/playing-mp4-in-windows-media-player-11/4251e823-32b5-4aee-be64-1f57a62f16d5

September 4, 2012

Parsing and Writing QuickTime Files in Java - O'Reilly Media
Feb 19, 2003 . Let's say you're writing an audio or video editor. . has uncompressed audio, and video barely compressed with Apple's "Video" codec. . (58 bytes) [mhlr/vide - Apple Video Media Handler] minf (1751 bytes) - 4 children vmhd .
http://onjava.com/pub/a/onjava/2003/02/19/qt_file_format.html?page=2

NC
Senior Contributor
21 reviews 21 reviews
Reviews in 8 cities Reviews in 8 cities
6 helpful votes 6 helpful votes
5 of 5 stars

streaming quicktime video to Samsung 7000 series tv
Seems stream 1 codec frame rate differs from container frame rate: 2997.00 ( 2997/1) -> 23.98 . handler_name : Apple Video Media Handler .
http://forum.conceiva.com/showthread.php/2741-streaming-quicktime-video-to-Samsung-7000-series-tv

Mobile video codec policy - Meta
May 1, 2012 . Our video transcoding platform (Timed Media Handler) uses ffmpeg for . Apple, Google, and other mobile platform vendors have been slow or .
http://meta.wikimedia.org/wiki/Mobile_video_codec_policy

mp4 will not play
Aug 9, 2012 . handler_name : Apple Video Media Handler . I noticed the error on the libx264 codec... looking into what that might mean. will post back my .
http://hwdmediashare.co.uk/forum/74-problems/60312-mp4-will-not-play

QuickTime container - MultimediaWiki
Aug 30, 2012 . ISO base media file format: ISO/IEC 14496-12:2008+Cor.1+Cor.2 . 8BPS "Apple Planar RGB"; SVQ1 "Sorenson Video¬ Compressor"; SVQ3 . SGI "Apple SGI"; 2vuy "Apple YUV422 Codec (2vuy)"; 2vuy "YUV . The subtype is a 4 letter code identifying the specific handler - for example 'vide' for video, .
http://wiki.multimedia.cx/index.php?title=QuickTime_container

[MPlayer-users] Quicktime playback on MPlayer/Linux -- Some videos ...
Aug 31, 2008 . MOV: Media header! MOV: Handler header: mhlr/vide (appl) Apple Video Media Handler MOV: Media info! MOV: Video header! MOV: Handler .
http://lists.mplayerhq.hu/pipermail/mplayer-users/2008-August/074171.html

September 4, 2012

live: liveMedia/QuickTimeFileSink.cpp Source File
A separate, codec-specific editing pass will be needed before this track can be played. . "Apple Video Media Handler"; 00620 fQTMediaInformationAtomCreator .
http://www.live555.com/liveMedia/doxygen/html/QuickTimeFileSink_8cpp-source.html

Reviewer
3 reviews 3 reviews
Reviews in 3 cities Reviews in 3 cities
2 helpful votes 2 helpful votes
3 of 5 stars

Thread-safe programming in QuickTime - Apple Developer
Sep 14, 2007 . Movie File - a file containing some media sample data that sits on disk. . configures it to compress the video using the DV Codec then calls . The Carbon event handler for our custom clean up event static pascal OSStatus .
http://developer.apple.com/library/mac/technotes/tn2125/

1
person found this review helpful

Streaming media - Wikipedia, the free encyclopedia
The term "streaming media" can apply to media other than video and audio such as live closed . 2 Streaming bandwidth and storage; 3 Codec, bitstream, transport, control . In June 1999 Apple also introduced a streaming media format in its . is data loss on the network, the media stream stalls while the protocol handlers .
http://en.wikipedia.org/wiki/Streaming_media

Creating QuickTime Movie Files - MacTech | The journal of Apple ...
Even though QuickTime supports a vast array of types of media (audio, video, text , . a video frame, it passes the current movie time to the video media handler, . a large number of video codecs (compressors/decompressors), and the track .
http://www.mactech.com/articles/mactech/Vol.16/16.06/Jun00QTToolkit

Windows Media Player Video - How To Information | eHow.com
Windows Media Player Video how to articles and videos including How to Remove . Steve Jobs, Apple CEO, discussed why the iPad would not support Flash in an . is a free media player that supports a wide variety of video and audio codecs. . For a Windows operating system's default handler of music and video files, .
http://www.ehow.com/windows-media-player-video/

Minnesota
Contributor
15 reviews 15 reviews
Reviews in 12 cities Reviews in 12 cities
3 helpful votes 3 helpful votes
5 of 5 stars

HTML 5 <video> Tag
HTML5 video tag - HTML tag for specifying video on an HTML document. . HTML tags: Element-specific, global, and event handler content attributes. . Note that the autoplay attribute can overrride the preload attribute (since if the media plays . the video tag in HTML5 and either the h.264 video codec or the WebM format .
http://www.quackit.com/html_5/tags/html_video_tag.cfm

Process multimedia with the Java Media Framework API ...
Dec 12, 2007 . The components are organized into these main categories: media handlers, data sources, codecs and effects, renderers, and mux/demuxes.
http://www.techrepublic.com/blog/programming-and-development/process-multimedia-with-the-java-media-framework-api/574

ffmpeg video conversion issue with MOV to MP4
General Multi-Media Software. someone gave me . handler_name : Core Media Data Handler Stream #0:1(und): . handler_name : Apple Alias Data Handler . http://www.downpanda.com/microsoft-dv-video-codec-downloads.html. Also see: .
http://www.experts-exchange.com/Programming/Multimedia_Programming/Q_27751109.html

Component Manager - Wikipedia, the free encyclopedia
In Apple Macintosh computer programming, Component Manager was one of . image codecs, media handlers, media data handlers, video digitizer drivers, file .
http://en.wikipedia.org/wiki/Component_Manager

Wisconsin
Reviewer
3 reviews 3 reviews
Reviews in 3 cities Reviews in 3 cities
1 helpful vote 1 helpful vote
5 of 5 stars

Codec Central Article - Streamlining Cross Platform Multimedia ...
Terran Interactive - Makers of Media Cleaner Pro for audio and video compression . This paper was presented at the Australian Apple University Consortium . For scripters, another simple solution is to write a search/replace handler which .
http://www.siggraph.org/education/materials/HyperGraph/video/Articles/Tamblyn.html

1
person found this review helpful

IIS Media Services Readme : The Official Microsoft IIS Site
Jun 23, 2011 . Applies To: IIS Media Services 4 (IIS Media Services 4.1 and IIS Media . The following video and audio formats are supported by the Apple HTTP Live . be used to encode to Smooth Streaming format with H.264/AAC-LC codecs. . The website might not have acquired the handler for .isml files and Live .
http://www.iis.net/learn/media/iis-media-services/iis-media-services-readme

[vlc-devel] Re: No sound for mp4 files
Mar 29, 2006 . The stream probably is encoded with a codec VLC doesn't support. . read box: " hdlr" handler type vide name Apple Video Media Handler mp4 .
http://mailman.videolan.org/pipermail/vlc-devel/2006-March/023353.html

Android Multimedia Framework Overview
Storage video and audio in media. – Playback video . ALAC, Apple Lossless Audio Codec . The informal name of SMTP 421M video codec standard. ? Initially .
http://www.windriver.com.cn/mobile/pdf/08_Android_Multimedia_Framework_Overview.pdf

Senior Contributor
21 reviews 21 reviews
Reviews in 18 cities Reviews in 18 cities
21 helpful votes 21 helpful votes
5 of 5 stars

Changelog
E.g. -c:v lib264 sets the codec for all video streams, -c:a:0 libvorbis sets the codec for the . XMV demuxer - Windows Media Image decoder - LATM muxer/demuxer . Brothers JV playback system - Apple HTTP Live Streaming protocol handler .
http://svn.perian.org/ffmpeg/Changelog

2
people found this review helpful

Inside: QuickTime
The official release was in 1991 which also brought basic video and audio capturing . new MIDI synthesizer, Shockwave Flash 4 media handler, new Sorenson codec, . DISCLAIMER: They are not endorsed or sanctioned by Apple nor their .
http://xhelmboyx.tripod.com/

[MPlayer-users] No audio in qtime (.mov) videos
Oct 7, 2004 . MOV: Handler header: mhlr/vide (appl) Apple Video Media Handler . Selected video codec: [ffsvq3] vfm:ffmpeg (FFmpeg Sorenson Video v3 .
http://lists.mplayerhq.hu/pipermail/mplayer-users/2004-October/048840.html

Streaming Video FAQlet
VIDEO STREAM FAQLET Updated 11 June 2002 Corrections, comments, . .mov Quicktime Player (http://www.apple.com/quicktime) Windows .asf Windows Media Player . Streaming formats are basically codecs or families of codecs. . including) the ASF ICM Handler filter : 4) Insert a new filter (Graph->InsertFilters) called .
http://www.mindspring.com/~erica/stream.html

Malicious Media Files - McAfee
media files, exploit, vulnerability, codec, apple quicktime, realmedia, adobe shockwave, microsoft . video file formats—Apple QuickTime, Adobe Shockwave Flash, Microsoft Advanced . embedding QT event handlers in the media samples. 1.
http://www.mcafee.com/us/resources/reports/rp-malicious-media-files.pdf

trailers wont play | MediaPortal Forum
I downloaded a trailer from apple's trailersite (saved it to HDD), that .mov playes . hi,can you tell me more details about the codecs you are using? . Name=V: Apple Video Media Handler [Undetermined], Filter=Haali Media .
http://forum.team-mediaportal.com/threads/trailers-wont-play.54328/

Senior Contributor
35 reviews 35 reviews
Reviews in 16 cities Reviews in 16 cities
59 helpful votes 59 helpful votes
5 of 5 stars

QuiC™
stored as large media files on server networks produced in a wide variety of file formats . matically detect, report and repair audio and video content files within the server net- work without . without third-party media handler intervention. This feature . Supported Video COdEC . . Apple ProRes up to 220 mb/s (10-bit) .
http://www.sgi.hu/sites/default/files/files/harris_QuiC1RU_25-18046.pdf

2
people found this review helpful

Download Kris Allen - Live Like We're Dying Torrent - KickassTorrents
Nov 13, 2009 . Audio: AAC 44100Hz stereo 256Kbps [Apple Sound Media Handler] Video: MPEG4 Video (H264) 640x312 29.97fps [Apple Video Media .
http://kat.ph/kris-allen-live-like-we-re-dying-t3194222.html

[FFmpeg-user] converting to h.264 using ffmpeg
May 23, 2012. Apple Sound Media Handler Stream #0:1(eng): Video: mpeg4 . h264_mp4toannexb for stream 0 with codec copy: Invalid argument frame= .
https://lists.ffmpeg.org/pipermail/ffmpeg-user/2012-May/006634.html

Free Shark Video Codecs Xp Downloads: Shark Video Downloader ...
Shark Video Downloader Diamond is a powerful, easiest and fastest all popular video formats . Free Video Handler Downloads. . AVI files then can be played in Windows Media Player or other standard multimedia player. . tool devoted to create Apple-compatible content from a wide variety of audio and video codecs.
http://www.fileguru.com/apps/shark_video_codecs_xp

QuickTime Playback Compatibility Chart - audio- and video codecs ...
Jan 21, 2008 . With the release of QT 7.3.1 and later QT's Flash media handler has been . QuickTime movies that are known to be safe, see Apple KB article.
http://www.simnet.is/klipklap/quicktime/

June 20, 2012

The VideoLAN Forums • View topic - Problem transcoding video to ...
Dec 29, 2008 . Problem transcoding video to mp1v-cannot find video encoder. Post by pps . main debug: Creating an input for 'Media Library' main debug: .
http://forum.videolan.org/viewtopic.php?f=14&t=54325

florida
Reviewer
5 reviews 5 reviews
Reviews in 5 cities Reviews in 5 cities
1 helpful vote 1 helpful vote
5 of 5 stars

QuickTime component but which one ? [Archive] - MacRumors Forums
Recently I had a task to port a DRM codec from Windows to Mac OS X. This codec . Each media handler is primarily responsible for understanding the format and . Link (http://developer.apple.com/documentation/QuickTime/RM/ . codec (for instance H.264) which will handle the data and display video.
http://forums.macrumors.com/archive/index.php/t-468651.html

1
person found this review helpful

Media Player Codec Pack 4.1.7 - CNET Download.com
Feb 19, 2012 . Come to CNET Download.com for free and safe Media Player Codec Pack 4.1.7 downloads. The Media Player Codec Pack is a simple to install .
http://download.cnet.com/Media-Player-Codec-Pack/3000-13632_4-12413472.html

QTKit Architecture - Apple Developer
Aug 19, 2009 . A video codec, by contrast, is software that enables video . and workings of media and data handlers, as well as components, which are part of .
http://developer.apple.com/Mac/library/documentation/Cocoa/Conceptual/QTKitApplicationProgrammingGuide/AnatomyoftheQTKFramework/AnatomyoftheQTKFramework.html

MakeQTMovie.m
. 'vide') type_string = 'Apple Video Media Handler'; elseif strcmp(sub_type, 'alis') . Fixed point 1 codec = [12 'Photo - JPEG ']; y = [mb32(0) mbstring('jpeg') .
http://www.ee.columbia.edu/~dpwe/e4810/matlab/MakeQTMovie.m

Opera Media Streaming Option
a handler that extends the HTML5 <video> element with support for MPEG-DASH , Microsoft Smooth Streaming and Apple HLS streaming protocols in the .
http://www.opera.com/media/b2b/tv/201201/Opera_Media_Streaming.pdf

June 20, 2012

QuickTime Playback Compatibility Chart - audio- and video codecs ...
Jan 21, 2008 . With the release of QT 7.3.1 and later QT's Flash media handler has . Video. Codec read- only/ read&write. Animation. BMP. (Apple BMP) .
http://www.simnet.is/klipklap/quicktime/qt-print.pdf

iTunes - Podcasts - MacBreak (iPod video) by Pixel ... - iTunes - Apple
iTunes is the world's easiest way to organize and add to your digital media collection. . to produce better and faster results than the native QuickTime codec. . keeping your information organized using custom data handlers in Numbers 09.
http://itunes.apple.com/us/podcast/macbreak-ipod-video/id153572588

Highly rated hotels in or near Minnetonka
Trendy
Hilton Garden Inn Minneapolis Downtown
molyvos restaurant between 55th and 56th 4.5 of 5 stars cargo liner for volkswagen sportwagon
Family-friendly
Sheraton Minneapolis West Hotel
cape hatteras good sam 4.0 of 5 stars mothers name on lion king
Romantic
Sofitel Minneapolis
manufacturing inventory costing policy 4.5 of 5 stars vee 12 remote control airplane engine
Luxury
The Hotel Minneapolis, Autograph Collection
haunted house st augistine 4.0 of 5 stars discounted atlantic city hotel rooms
Show Prices

iTunes - Podcasts - MacBreak (video) by Pixel Corps - iTunes - Apple
iTunes is the world's easiest way to organize and add to your digital media collection. . to produce better and faster results than the native QuickTime codec. . keeping your information organized using custom data handlers in Numbers 09.
http://itunes.apple.com/us/podcast/macbreak-video/id119110543

Show Prices

Encoding for HLS using FFMPEG results in have a decreasing DTS ...
I am trying to encode video for HTS live streaming, but am having problems with . DEBUG ~ FFMPEG(1): handler_name : Apple Video Media Handler . Recommended video codec for all video qualities is H.264 Baseline .
http://stackoverflow.com/questions/11503491/encoding-for-hls-using-ffmpeg-results-in-have-a-decreasing-dts

Show Prices

Gabest mp4splitter question [Archive] - Doom9's Forum
I was playing around with the Haali Media splitter and the . Other common strings are "Apple Video Media Handler" and "GPAC ISO Video handler". . V2 to create these files and they used the Elecard codecs for this SW.
http://forum.doom9.org/archive/index.php/t-138153.html

Show Prices

FFmpeg-users - problem with audio/video sync after conversion
Seems stream 0 codec frame rate differs from container frame rate: 59.94 (60000/ 1001) -> 29.97 (2997/100) Input #0, mov,mp4,m4a,3gp . handler_name : Mainconcept MP4 Video Media Handler . Apple Alias Data Handler .
http://ffmpeg-users.933282.n4.nabble.com/problem-with-audio-video-sync-after-conversion-td4651085.html

Also consider these accommodations in or near Minnetonka
thomson transmetteur video sans fil 4.0 of 5 stars home parents choice awards toys 3.5 of 5 stars johnson controller johnson temperature pictures of mixed pokemon 4.0 of 5 stars symptoms of sugar intoler reader's digest super samurai challenge 4.0 of 5 stars us postal service office locations
Show Prices

Apple Developer Search
223 results . Apple Developer Forums. Search for development questions and .
http://developer.apple.com/search/index.php?q=quicktime

Show Prices

Media Data Atom Types - Apple Developer
Aug 14, 2012 . “Video Media” describes video media, which is used to store . This extension appears in video sample descriptions only when the codec type is 'mp4v' . . The timecode media handler also adds some of its own fields to the .
http://developer.apple.com/library/mac/documentation/quicktime/qtff/QTFFChap3/qtff3.html

Show Prices

MPEG 4 System - Media XW
The design is based on the QuickTime® format from Apple Computer Inc. . handler, at this level, the media (handler) type minf . 6.3.12.1 video media header, overall information (video . sample descriptions (codec types, initialization etc.) .
http://mediaxw.sourceforge.net/files/doc/MPEG%204%20System.pdf

Show Prices

[MPlayer-users] Quicktime/mjpeg question
Dec 12, 2004 . MOV: Handler header: mhlr/vide (appl) Apple Video Media Handler . 480 Fourcc : jpeg Codec: 'Photo - JPEG' -------------- MOV: Track #1: MOV: .
http://lists.mplayerhq.hu/pipermail/mplayer-users/2004-December/050273.html

erica smith's family history project

Harris Corporation :: Broadcast Communications / QuiC
The QuiC™ media analysis server is a fully automated, file-based test and measurement server . an auto-correct inbox of a second analyzer automatically without third-party media handler intervention. . Supported Video CODEC Formats*, MPEG-2/IMX 50 CBG/SONY XDCAM-HD . Apple ProRes up to 220 mb/s (10-bit) .
http://www.broadcast.harris.com/productsandsolutions/Servers/MediaAnalysisandCorrection/QuiC.asp

Write a Review Add Photos Add Videos

Additional Information about apple video media handler codec

  • apple video media handler codec Hotel
  • apple video media handler codec Hotel Minnetonka
  • Marriott Hotel Minnetonka
  • Marriott Minnetonka
  • Minnetonka Marriott

[FFmpeg-user] problem with audio/video sync after conversion
Jun 19, 2012 . 0 Seems stream 0 codec frame rate differs from container frame rate: 59.94 . 2012-06-08 20:01:51 handler_name : Mainconcept MP4 Video Media Handler . Apple Alias Data Handler [buffer @ 0xb027ce0] w:1280 h:720 .
https://lists.ffmpeg.org/pipermail/ffmpeg-user/2012-June/007359.html

Price Range: $

Download - Apple Developer
playback of audio/video media, with optimized support for modern codecs. . terminology and workings of media and data handlers, as well as components, .
http://developer.apple.com/library/mac/documentation/Cocoa/Conceptual/QTKitApplicationProgrammingGuide/QTKitApplicationProgrammingGuide.pdf

#931 (Remuxing Apple prores video) – FFmpeg
Jan 19, 2012 . Remuxing Apple prores video . [mov,mp4,m4a,3gp,3g2,mj2 @ 0xa577ac0] Could not find codec . Input #0, mov,mp4,m4a,3gp,3g2,mj2, from '/media/wshare /Downloads/AppleProRes422.mov': . Apple Alias Data Handler .
http://ffmpeg.org/trac/ffmpeg/ticket/931

  • Manage your listing
Minneapolis Marriott Southwest
Show the lowest price for this hotel (from our partners)
Show Prices